  0
SECTION
  2
HEADER
  9
$ACADVER
  1
AC1009
  9
$INSBASE
 10
0.0
 20
0.0
 30
0.0
  9
$EXTMIN
 10
-169.5734059646515
 20
-860.32459501444441
 30
-0.0000000000112498
  9
$EXTMAX
 10
690.01310165480413
 20
5.341956663561632
 30
0.0000000000002956
  9
$LIMMIN
 10
-150.0
 20
-150.0
  9
$LIMMAX
 10
150.0
 20
150.0
  9
$ORTHOMODE
 70
     0
  9
$REGENMODE
 70
     1
  9
$FILLMODE
 70
     1
  9
$QTEXTMODE
 70
     0
  9
$MIRRTEXT
 70
     0
  9
$DRAGMODE
 70
     2
  9
$LTSCALE
 40
1.0
  9
$OSMODE
 70
   111
  9
$ATTMODE
 70
     1
  9
$TEXTSIZE
 40
3.5
  9
$TRACEWID
 40
1.0
  9
$TEXTSTYLE
  7
BESCHLAG
  9
$CLAYER
  8
0
  9
$CELTYPE
  6
BYLAYER
  9
$CECOLOR
 62
   256
  9
$DIMSCALE
 40
1.0
  9
$DIMASZ
 40
2.0
  9
$DIMEXO
 40
2.0
  9
$DIMDLI
 40
0.0
  9
$DIMRND
 40
0.0
  9
$DIMDLE
 40
1.0
  9
$DIMEXE
 40
1.0
  9
$DIMTP
 40
0.0
  9
$DIMTM
 40
0.0
  9
$DIMTXT
 40
3.5
  9
$DIMCEN
 40
0.0
  9
$DIMTSZ
 40
0.0
  9
$DIMTOL
 70
     0
  9
$DIMLIM
 70
     0
  9
$DIMTIH
 70
     0
  9
$DIMTOH
 70
     0
  9
$DIMSE1
 70
     0
  9
$DIMSE2
 70
     0
  9
$DIMTAD
 70
     1
  9
$DIMZIN
 70
     8
  9
$DIMBLK
  1

  9
$DIMASO
 70
     1
  9
$DIMSHO
 70
     1
  9
$DIMPOST
  1

  9
$DIMAPOST
  1

  9
$DIMALT
 70
     0
  9
$DIMALTD
 70
     2
  9
$DIMALTF
 40
0.039370078740157
  9
$DIMLFAC
 40
1.0
  9
$DIMTOFL
 70
     1
  9
$DIMTVP
 40
0.0
  9
$DIMTIX
 70
     1
  9
$DIMSOXD
 70
     0
  9
$DIMSAH
 70
     1
  9
$DIMBLK1
  1
OBLIQUE
  9
$DIMBLK2
  1
OBLIQUE
  9
$DIMSTYLE
  2
OPO-SSTRICH
  9
$DIMCLRD
 70
   256
  9
$DIMCLRE
 70
   256
  9
$DIMCLRT
 70
   256
  9
$DIMTFAC
 40
0.7114285714285716
  9
$DIMGAP
 40
1.0
  9
$LUNITS
 70
     2
  9
$LUPREC
 70
     1
  9
$SKETCHINC
 40
1.0
  9
$FILLETRAD
 40
0.0
  9
$AUNITS
 70
     0
  9
$AUPREC
 70
     1
  9
$MENU
  1
D:\ACL_CGWG\CGTAB13
  9
$ELEVATION
 40
0.0
  9
$PELEVATION
 40
0.0
  9
$THICKNESS
 40
0.0
  9
$LIMCHECK
 70
     0
  9
$BLIPMODE
 70
     0
  9
$CHAMFERA
 40
1.0
  9
$CHAMFERB
 40
1.0
  9
$SKPOLY
 70
     0
  9
$TDCREATE
 40
2451739.9294097219
  9
$TDUPDATE
 40
2452087.6714458442
  9
$TDINDWG
 40
0.0009059375
  9
$TDUSRTIMER
 40
0.0009059375
  9
$USRTIMER
 70
     1
  9
$ANGBASE
 50
0.0
  9
$ANGDIR
 70
     0
  9
$PDMODE
 70
    35
  9
$PDSIZE
 40
5.0
  9
$PLINEWID
 40
0.0
  9
$COORDS
 70
     1
  9
$SPLFRAME
 70
     0
  9
$SPLINETYPE
 70
     6
  9
$SPLINESEGS
 70
     8
  9
$ATTDIA
 70
     1
  9
$ATTREQ
 70
     1
  9
$HANDLING
 70
-16383
  9
$HANDSEED
  5
4CF
  9
$SURFTAB1
 70
    12
  9
$SURFTAB2
 70
    12
  9
$SURFTYPE
 70
     6
  9
$SURFU
 70
    12
  9
$SURFV
 70
    12
  9
$UCSNAME
  2

  9
$UCSORG
 10
0.0
 20
0.0
 30
0.0
  9
$UCSXDIR
 10
1.0
 20
0.0
 30
0.0
  9
$UCSYDIR
 10
0.0
 20
1.0
 30
0.0
  9
$PUCSNAME
  2

  9
$PUCSORG
 10
0.0
 20
0.0
 30
0.0
  9
$PUCSXDIR
 10
1.0
 20
0.0
 30
0.0
  9
$PUCSYDIR
 10
0.0
 20
1.0
 30
0.0
  9
$USERI1
 70
     0
  9
$USERI2
 70
     0
  9
$USERI3
 70
     0
  9
$USERI4
 70
     0
  9
$USERI5
 70
     0
  9
$USERR1
 40
0.0
  9
$USERR2
 40
0.0
  9
$USERR3
 40
0.0
  9
$USERR4
 40
0.0
  9
$USERR5
 40
0.0
  9
$WORLDVIEW
 70
     1
  9
$SHADEDGE
 70
     3
  9
$SHADEDIF
 70
    70
  9
$TILEMODE
 70
     1
  9
$MAXACTVP
 70
    48
  9
$PLIMCHECK
 70
     0
  9
$PEXTMIN
 10
1.0000000000000000E+020
 20
1.0000000000000000E+020
 30
1.0000000000000000E+020
  9
$PEXTMAX
 10
-1.0000000000000000E+020
 20
-1.0000000000000000E+020
 30
-1.0000000000000000E+020
  9
$PLIMMIN
 10
0.0
 20
0.0
  9
$PLIMMAX
 10
420.0
 20
297.0
  9
$UNITMODE
 70
     0
  9
$VISRETAIN
 70
     1
  9
$PLINEGEN
 70
     0
  9
$PSLTSCALE
 70
     1
  0
ENDSEC
  0
SECTION
  2
TABLES
  0
TABLE
  2
VPORT
 70
     2
  0
VPORT
  2
*ACTIVE
 70
     0
 10
0.0
 20
0.0
 11
1.0
 21
1.0
 12
260.21984784507629
 22
-427.49131917544128
 13
0.0
 23
0.0
 14
0.5
 24
0.5
 15
10.0
 25
10.0
 16
0.0
 26
0.0
 36
1.0
 17
0.0
 27
0.0
 37
0.0
 40
872.69496752383566
 41
1.6070460704607039
 42
50.0
 43
0.0
 44
0.0
 50
0.0
 51
0.0
 71
     0
 72
   800
 73
     1
 74
     1
 75
     0
 76
     0
 77
     0
 78
     0
  0
ENDTAB
  0
TABLE
  2
LTYPE
 70
     3
  0
LTYPE
  2
CONTINUOUS
 70
     0
  3
_______________________________________________
 72
    65
 73
     2
 40
1.0
 49
1.0
 49
0.0
  0
LTYPE
  2
STRICHLINIE
 70
     0
  3
Strichlinie __ __ __ __ __ __ __ __ __ __ __ __
 72
    65
 73
     2
 40
19.04999999999999
 49
12.699999999999999
 49
-6.3499999999999988
  0
LTYPE
  2
STRICHPUNKT
 70
     0
  3
__ . __ . __ . __ . __ . __ . __ . __ . __ . __
 72
    65
 73
     4
 40
1.0
 49
0.5
 49
-0.25
 49
0.0
 49
-0.25
  0
ENDTAB
  0
TABLE
  2
LAYER
 70
     6
  0
LAYER
  2
0
 70
     0
 62
    30
  6
CONTINUOUS
  0
LAYER
  2
1
 70
     0
 62
     2
  6
CONTINUOUS
  0
LAYER
  2
4
 70
     1
 62
     4
  6
CONTINUOUS
  0
LAYER
  2
5
 70
     0
 62
     1
  6
CONTINUOUS
  0
LAYER
  2
6
 70
     0
 62
     3
  6
CONTINUOUS
  0
LAYER
  2
DEFPOINTS
 70
     0
 62
     7
  6
CONTINUOUS
  0
ENDTAB
  0
TABLE
  2
STYLE
 70
     2
  0
STYLE
  2
STANDARD
 70
     0
 40
0.0
 41
1.0
 50
0.0
 71
     0
 42
2.5
  3
txt
  4

  0
STYLE
  2
BESCHLAG
 70
     0
 40
0.0
 41
1.0
 50
0.0
 71
     0
 42
3.5
  3
txt
  4

  0
ENDTAB
  0
TABLE
  2
VIEW
 70
     0
  0
ENDTAB
  0
TABLE
  2
UCS
 70
     0
  0
ENDTAB
  0
TABLE
  2
APPID
 70
     1
  0
APPID
  2
ACAD
 70
     0
  0
ENDTAB
  0
TABLE
  2
DIMSTYLE
 70
     2
  0
DIMSTYLE
  2
OPO-SSTRICH
 70
     0
  3

  4

  5

  6
OBLIQUE
  7
OBLIQUE
 40
1.0
 41
2.0
 42
2.0
 43
0.0
 44
1.0
 45
0.0
 46
1.0
 47
0.0
 48
0.0
140
3.5
141
0.0
142
0.0
143
0.039370078740157
144
1.0
145
0.0
146
0.7114285714285716
147
1.0
 71
     0
 72
     0
 73
     0
 74
     0
 75
     0
 76
     0
 77
     1
 78
     8
170
     0
171
     2
172
     1
173
     1
174
     1
175
     0
176
   256
177
   256
178
   256
  0
DIMSTYLE
  2
OPO-SSTRICH-10
 70
     0
  3

  4

  5

  6

  7

 40
10.0
 41
0.0
 42
2.0
 43
0.0
 44
1.0
 45
0.0
 46
1.0
 47
0.0
 48
0.0
140
1.8
141
2.0
142
1.0
143
0.039370078740157
144
1.0
145
0.0
146
1.388888888888888
147
1.0
 71
     0
 72
     0
 73
     0
 74
     0
 75
     0
 76
     0
 77
     1
 78
     8
170
     0
171
     2
172
     1
173
     0
174
     1
175
     0
176
   256
177
   256
178
   256
  0
ENDTAB
  0
ENDSEC
  0
SECTION
  2
BLOCKS
  0
BLOCK
  8
0
  2
$MODEL_SPACE
 70
     0
 10
0.0
 20
0.0
 30
0.0
  3
$MODEL_SPACE
  1

  0
ENDBLK
  5
1C
  8
0
  0
BLOCK
 67
     1
  8
0
  2
$PAPER_SPACE
 70
     0
 10
0.0
 20
0.0
 30
0.0
  3
$PAPER_SPACE
  1

  0
ENDBLK
  5
19
 67
     1
  8
0
  0
BLOCK
  8
0
  2
_OBLIQUE
 70
     0
 10
0.0
 20
0.0
 30
0.0
  3
_OBLIQUE
  1

  0
LINE
  5
204
  8
0
 62
     0
 10
-0.5
 20
-0.5
 30
0.0
 11
0.5
 21
0.5
 31
0.0
  0
ENDBLK
  5
206
  8
0
  0
BLOCK
  8
0
  2
NULLPUNKT
 70
     0
 10
0.0
 20
0.0
 30
0.0
  3
NULLPUNKT
  1

  0
SOLID
  5
254
  8
5
 10
0.0
 20
0.0
 30
0.0
 11
2.0
 21
0.0
 31
0.0
 12
0.0
 22
-2.0
 32
0.0
 13
0.0
 23
-2.0
 33
0.0
  0
SOLID
  5
255
  8
5
 10
0.0
 20
0.0
 30
0.0
 11
-2.0
 21
0.0
 31
0.0
 12
0.0
 22
2.0
 32
0.0
 13
0.0
 23
2.0
 33
0.0
  0
POLYLINE
  5
256
  8
5
 66
     1
 10
0.0
 20
0.0
 30
0.0
  0
VERTEX
  5
3E1
  8
5
 10
0.0
 20
2.0
 30
0.0
  0
VERTEX
  5
3E2
  8
5
 10
0.0
 20
-2.0
 30
0.0
  0
SEQEND
  5
3E3
  8
5
  0
POLYLINE
  5
257
  8
5
 66
     1
 10
0.0
 20
0.0
 30
0.0
  0
VERTEX
  5
3E4
  8
5
 10
-2.0
 20
0.0
 30
0.0
  0
VERTEX
  5
3E5
  8
5
 10
2.0
 20
0.0
 30
0.0
  0
SEQEND
  5
3E6
  8
5
  0
CIRCLE
  5
258
  8
5
 10
0.0
 20
0.0
 30
0.0
 40
2.0
  0
ENDBLK
  5
25A
  8
0
  0
BLOCK
  8
0
  2
*D2
 70
     1
 10
0.0
 20
0.0
 30
0.0
  3
*D2
  1

  0
LINE
  5
315
  8
1
 10
680.0
 20
-32.0
 30
0.0
 11
680.0
 21
-689.3441663204884
 31
0.0
  0
LINE
  5
316
  8
1
 10
-0.0000000000000012
 20
-242.0
 30
0.0
 11
-0.0000000000000286
 21
-689.3441663204884
 31
0.0
  0
LINE
  5
317
  8
1
 10
690.0
 20
-679.34416632048851
 30
0.0
 11
-10.00000000000002
 21
-679.34416632048851
 31
0.0
  0
LINE
  5
318
  8
1
 10
-10.00000000000002
 20
-689.3441663204884
 30
0.0
 11
9.9999999999999716
 21
-669.34416632048851
 31
0.0
  0
LINE
  5
319
  8
1
 10
670.0
 20
-689.3441663204884
 30
0.0
 11
690.0
 21
-669.34416632048851
 31
0.0
  0
TEXT
  5
31A
  8
0
 10
319.1514324693041
 20
-669.00037368747348
 30
0.0
 40
18.0
  1
680
  0
POINT
  5
31B
  8
DEFPOINTS
 62
     0
 10
680.0
 20
-12.0
 30
0.0
  0
POINT
  5
31C
  8
DEFPOINTS
 62
     0
 10
0.0
 20
-222.0
 30
0.0
  0
POINT
  5
31D
  8
DEFPOINTS
 62
     0
 10
-0.000000000000028
 20
-679.34416632048851
 30
0.0
  0
ENDBLK
  5
314
  8
0
  0
ENDSEC
  0
SECTION
  2
ENTITIES
  0
INSERT
  5
25B
  8
5
  2
NULLPUNKT
 10
0.0
 20
0.0
 30
0.0
  0
POLYLINE
  5
2C4
  8
6
 66
     1
 10
0.0
 20
0.0
 30
0.0
  0
VERTEX
  5
3E7
  8
6
 10
28.108238930091829
 20
-143.88285280954821
 30
0.0
  0
VERTEX
  5
3E8
  8
6
 10
435.26793876306868
 20
-54.279731741091382
 30
0.0
  0
VERTEX
  5
3E9
  8
6
 10
438.73206123692938
 20
-69.90022646712714
 30
0.0
  0
VERTEX
  5
3EA
  8
6
 10
31.595814880996841
 20
-159.50412148508249
 30
0.0
  0
SEQEND
  5
3EB
  8
6
  0
POLYLINE
  5
2C5
  8
6
 66
     1
 10
0.0
 20
0.0
 30
0.0
  0
VERTEX
  5
3EC
  8
6
 10
469.27330096720277
 20
-54.723994473124542
 30
0.0
 42
-0.0528391839100589
  0
VERTEX
  5
3ED
  8
6
 10
486.32157567597278
 20
-59.59043068373375
 30
0.0
  0
VERTEX
  5
3EE
  8
6
 10
484.05936920004928
 20
-62.889282280924817
 30
0.0
 42
0.0478282084168341
  0
VERTEX
  5
3EF
  8
6
 10
468.56675208735578
 20
-58.683469209696341
 30
0.0
 42
0.0784911828100752
  0
SEQEND
  5
3F0
  8
6
  0
POLYLINE
  5
2C6
  8
5
  6
STRICHLINIE
 66
     1
 10
0.0
 20
0.0
 30
0.0
  0
VERTEX
  5
3F1
  8
5
  6
STRICHLINIE
 10
32.02111630649415
 20
-158.97174121984281
 30
0.0
  0
VERTEX
  5
3F2
  8
5
  6
STRICHLINIE
 10
32.02111630649415
 20
-575.87429634908221
 30
0.0
  0
VERTEX
  5
3F3
  8
5
  6
STRICHLINIE
 10
16.02113730121118
 20
-575.90021604283993
 30
0.0
  0
VERTEX
  5
3F4
  8
5
  6
STRICHLINIE
 10
16.015340680972709
 20
-159.02039995001579
 30
0.0
  0
SEQEND
  5
3F5
  8
5
  6
STRICHLINIE
  0
CIRCLE
  5
2C7
  8
6
  6
STRICHLINIE
 10
24.0
 20
-153.0
 30
0.0
 40
10.0
  0
LINE
  5
2C8
  8
6
  6
STRICHPUNKT
 10
-5.9016008759754177
 20
-192.0
 30
0.0
 11
12.178043939153209
 21
-192.0
 31
0.0
  0
POLYLINE
  5
2C9
  8
4
 66
     1
 10
0.0
 20
0.0
 30
0.0
  0
VERTEX
  5
3F6
  8
4
 10
469.27330096720277
 20
-54.723994473124542
 30
0.0
 42
-0.0528391839100589
  0
VERTEX
  5
3F7
  8
4
 10
486.32157567597278
 20
-59.59043068373375
 30
0.0
  0
VERTEX
  5
3F8
  8
4
 10
484.05936920004928
 20
-62.889282280924817
 30
0.0
 42
0.0478282084168341
  0
VERTEX
  5
3F9
  8
4
 10
468.56675208735578
 20
-58.683469209696341
 30
0.0
 42
0.0784911828100752
  0
SEQEND
  5
3FA
  8
4
  0
POLYLINE
  5
2CA
  8
4
 66
     1
 10
0.0
 20
0.0
 30
0.0
 70
     1
  0
VERTEX
  5
3FB
  8
4
 10
0.0
 20
-42.0
 30
0.0
  0
VERTEX
  5
3FC
  8
4
 10
0.0
 20
-2.0
 30
0.0
  0
VERTEX
  5
3FD
  8
4
 10
9.0
 20
-2.3333333333339392
 30
0.0
  0
VERTEX
  5
3FE
  8
4
 10
9.0
 20
-42.0
 30
0.0
  0
SEQEND
  5
3FF
  8
4
  0
POLYLINE
  5
2CB
  8
4
 66
     1
 10
0.0
 20
0.0
 30
0.0
 70
     1
  0
VERTEX
  5
400
  8
4
 10
57.0
 20
-4.0
 30
0.0
  0
VERTEX
  5
401
  8
4
 10
57.0
 20
-29.0
 30
0.0
  0
VERTEX
  5
402
  8
4
 10
35.0
 20
-42.0
 30
0.0
  0
VERTEX
  5
403
  8
4
 10
35.0
 20
-184.0
 30
0.0
  0
VERTEX
  5
404
  8
4
 10
20.0
 20
-222.0
 30
0.0
  0
VERTEX
  5
405
  8
4
 10
0.0
 20
-222.0
 30
0.0
  0
VERTEX
  5
406
  8
4
 10
0.0
 20
-2.0
 30
0.0
  0
SEQEND
  5
407
  8
4
  0
POLYLINE
  5
2CC
  8
4
 66
     1
 10
0.0
 20
0.0
 30
0.0
 70
     1
  0
VERTEX
  5
408
  8
4
 10
-88.905024785202841
 20
-42.0
 30
0.0
  0
VERTEX
  5
409
  8
4
 10
-88.905024785202841
 20
-2.0
 30
0.0
  0
VERTEX
  5
40A
  8
4
 10
-53.905024785202841
 20
-2.0
 30
0.0
  0
VERTEX
  5
40B
  8
4
 10
-53.905024785202841
 20
-42.0
 30
0.0
  0
SEQEND
  5
40C
  8
4
  0
POLYLINE
  5
2CD
  8
4
 66
     1
 10
0.0
 20
0.0
 30
0.0
 70
     1
  0
VERTEX
  5
40D
  8
4
 10
-133.90502478520281
 20
-42.0
 30
0.0
  0
VERTEX
  5
40E
  8
4
 10
-133.90502478520281
 20
-2.0
 30
0.0
  0
VERTEX
  5
40F
  8
4
 10
-168.90502478520281
 20
-2.0
 30
0.0
  0
VERTEX
  5
410
  8
4
 10
-168.90502478520281
 20
-42.0
 30
0.0
  0
SEQEND
  5
411
  8
4
  0
POLYLINE
  5
2CE
  8
4
 66
     1
 10
0.0
 20
0.0
 30
0.0
 70
     1
  0
VERTEX
  5
412
  8
4
 10
-124.9050247852028
 20
-22.0
 30
0.0
  0
VERTEX
  5
413
  8
4
 10
-124.9050247852028
 20
0.0
 30
0.0
  0
VERTEX
  5
414
  8
4
 10
-97.905024785202841
 20
0.0
 30
0.0
  0
VERTEX
  5
415
  8
4
 10
-97.905024785202841
 20
-22.0
 30
0.0
  0
VERTEX
  5
416
  8
4
 10
-101.9050247852028
 20
-22.0
 30
0.0
  0
VERTEX
  5
417
  8
4
 10
-101.9050247852028
 20
-4.0
 30
0.0
  0
VERTEX
  5
418
  8
4
 10
-120.9050247852028
 20
-4.0
 30
0.0
  0
VERTEX
  5
419
  8
4
 10
-120.9050247852028
 20
-22.0
 30
0.0
  0
SEQEND
  5
41A
  8
4
  0
POLYLINE
  5
2CF
  8
4
  6
STRICHPUNKT
 66
     1
 10
0.0
 20
0.0
 30
0.0
 70
     1
  0
VERTEX
  5
41B
  8
4
  6
STRICHPUNKT
 10
-103.4050247852028
 20
-54.279731741091382
 30
0.0
  0
VERTEX
  5
41C
  8
4
  6
STRICHPUNKT
 10
-119.4050247852028
 20
-54.279731741091382
 30
0.0
  0
VERTEX
  5
41D
  8
4
  6
STRICHPUNKT
 10
-119.4050247852028
 20
-147.1993126770312
 30
0.0
  0
VERTEX
  5
41E
  8
4
  6
STRICHPUNKT
 10
-103.4050247852028
 20
-147.1993126770312
 30
0.0
  0
SEQEND
  5
41F
  8
4
  6
STRICHPUNKT
  0
POLYLINE
  5
2D0
  8
4
  6
STRICHPUNKT
 66
     1
 10
0.0
 20
0.0
 30
0.0
 70
     1
  0
VERTEX
  5
420
  8
4
  6
STRICHPUNKT
 10
-97.905024785202841
 20
-22.0
 30
0.0
  0
VERTEX
  5
421
  8
4
  6
STRICHPUNKT
 10
-97.905024785202841
 20
-62.0
 30
0.0
  0
VERTEX
  5
422
  8
4
  6
STRICHPUNKT
 10
-124.9050247852028
 20
-62.0
 30
0.0
  0
VERTEX
  5
423
  8
4
  6
STRICHPUNKT
 10
-124.9050247852028
 20
-22.0
 30
0.0
  0
VERTEX
  5
424
  8
4
  6
STRICHPUNKT
 10
-120.9050247852028
 20
-22.0
 30
0.0
  0
VERTEX
  5
425
  8
4
  6
STRICHPUNKT
 10
-120.9050247852028
 20
-58.0
 30
0.0
  0
VERTEX
  5
426
  8
4
  6
STRICHPUNKT
 10
-101.9050247852028
 20
-58.0
 30
0.0
  0
VERTEX
  5
427
  8
4
  6
STRICHPUNKT
 10
-101.9050247852028
 20
-22.0
 30
0.0
  0
SEQEND
  5
428
  8
4
  6
STRICHPUNKT
  0
POLYLINE
  5
2D1
  8
4
 66
     1
 10
0.0
 20
0.0
 30
0.0
 70
     1
  0
VERTEX
  5
429
  8
4
 10
-126.9050247852028
 20
-2.0
 30
0.0
  0
VERTEX
  5
42A
  8
4
 10
-133.90502478520281
 20
-2.0
 30
0.0
  0
VERTEX
  5
42B
  8
4
 10
-133.90502478520281
 20
-219.0
 30
0.0
 42
0.4142135623730951
  0
VERTEX
  5
42C
  8
4
 10
-130.90502478520281
 20
-222.0
 30
0.0
  0
VERTEX
  5
42D
  8
4
 10
-91.905024785202855
 20
-222.0
 30
0.0
 42
0.4142135623730951
  0
VERTEX
  5
42E
  8
4
 10
-88.905024785202841
 20
-219.0
 30
0.0
  0
VERTEX
  5
42F
  8
4
 10
-88.905024785202841
 20
-2.0
 30
0.0
  0
VERTEX
  5
430
  8
4
 10
-95.905024785202826
 20
-2.0
 30
0.0
  0
VERTEX
  5
431
  8
4
 10
-95.905024785202826
 20
-213.0
 30
0.0
 42
-0.4142135623730951
  0
VERTEX
  5
432
  8
4
 10
-97.905024785202841
 20
-215.0
 30
0.0
  0
VERTEX
  5
433
  8
4
 10
-124.9050247852028
 20
-215.0
 30
0.0
 42
-0.4142135623730951
  0
VERTEX
  5
434
  8
4
 10
-126.9050247852028
 20
-213.0
 30
0.0
  0
SEQEND
  5
435
  8
4
  0
POLYLINE
  5
2D2
  8
4
 66
     1
 10
0.0
 20
0.0
 30
0.0
 70
     1
  0
VERTEX
  5
436
  8
4
 10
35.0
 20
-142.36619165232869
 30
0.0
  0
VERTEX
  5
437
  8
4
 10
435.26793876306868
 20
-54.279731741091382
 30
0.0
  0
VERTEX
  5
438
  8
4
 10
438.73206123692938
 20
-69.90022646712714
 30
0.0
  0
VERTEX
  5
439
  8
4
 10
35.0
 20
-158.7549171370174
 30
0.0
  0
SEQEND
  5
43A
  8
4
  0
POLYLINE
  5
2D3
  8
4
 66
     1
 10
0.0
 20
0.0
 30
0.0
  0
VERTEX
  5
43B
  8
4
 10
32.0
 20
-3.1228070175438911
 30
0.0
  0
VERTEX
  5
43C
  8
4
 10
32.0
 20
0.0
 30
0.0
  0
VERTEX
  5
43D
  8
4
 10
32.0
 20
0.0
 30
0.0
  0
VERTEX
  5
43E
  8
4
 10
680.0
 20
0.0
 30
0.0
  0
VERTEX
  5
43F
  8
4
 10
680.0
 20
-12.0
 30
0.0
 42
-0.4142135623730951
  0
VERTEX
  5
440
  8
4
 10
670.0
 20
-22.0
 30
0.0
  0
VERTEX
  5
441
  8
4
 10
475.0
 20
-22.0
 30
0.0
  0
VERTEX
  5
442
  8
4
 10
468.0
 20
-62.0
 30
0.0
  0
VERTEX
  5
443
  8
4
 10
437.0
 20
-62.0
 30
0.0
  0
VERTEX
  5
444
  8
4
 10
430.0
 20
-22.0
 30
0.0
  0
VERTEX
  5
445
  8
4
 10
57.0
 20
-22.0
 30
0.0
  0
SEQEND
  5
446
  8
4
  0
POLYLINE
  5
2D4
  8
4
 66
     1
 10
0.0
 20
0.0
 30
0.0
 70
     1
  0
VERTEX
  5
447
  8
4
 10
34.511378421786503
 20
-789.30918785853191
 30
0.0
  0
VERTEX
  5
448
  8
4
 10
34.511378421786503
 20
-816.30918785853191
 30
0.0
  0
VERTEX
  5
449
  8
4
 10
680.0
 20
-816.30918785853191
 30
0.0
  0
VERTEX
  5
44A
  8
4
 10
680.0
 20
-789.30918785853191
 30
0.0
  0
SEQEND
  5
44B
  8
4
  0
POLYLINE
  5
2D5
  8
4
 66
     1
 10
0.0
 20
0.0
 30
0.0
 70
     1
  0
VERTEX
  5
44C
  8
4
 10
0.0
 20
-745.3091878585318
 30
0.0
  0
VERTEX
  5
44D
  8
4
 10
9.0
 20
-745.3091878585318
 30
0.0
  0
VERTEX
  5
44E
  8
4
 10
9.0
 20
-780.30918785853191
 30
0.0
  0
VERTEX
  5
44F
  8
4
 10
57.0
 20
-780.30918785853191
 30
0.0
  0
VERTEX
  5
450
  8
4
 10
57.0
 20
-787.30918785853191
 30
0.0
  0
VERTEX
  5
451
  8
4
 10
9.0
 20
-787.30918785853191
 30
0.0
  0
VERTEX
  5
452
  8
4
 10
9.0
 20
-818.30918785853191
 30
0.0
  0
VERTEX
  5
453
  8
4
 10
57.0
 20
-818.30918785853191
 30
0.0
  0
VERTEX
  5
454
  8
4
 10
57.0
 20
-825.30918785853191
 30
0.0
  0
VERTEX
  5
455
  8
4
 10
9.0
 20
-825.30918785853191
 30
0.0
  0
VERTEX
  5
456
  8
4
 10
9.0
 20
-860.30918785853191
 30
0.0
  0
VERTEX
  5
457
  8
4
 10
0.0
 20
-860.30918785853191
 30
0.0
  0
SEQEND
  5
458
  8
4
  0
LINE
  5
2D6
  8
6
  6
STRICHPUNKT
 10
658.0
 20
5.3211303313364624
 30
0.0
 11
658.0
 21
-6.0017470846596552
 31
0.0
  0
TEXT
  5
2D7
  8
1
 10
246.44028497826179
 20
-189.72353185699509
 30
0.0
 40
18.0
  1
Hebgo KS/680
  0
POLYLINE
  5
2D8
  8
5
  6
STRICHLINIE
 66
     1
 10
0.0
 20
0.0
 30
0.0
  0
VERTEX
  5
459
  8
5
  6
STRICHLINIE
 10
30.557413120019191
 20
-575.87666752334007
 30
0.0
 42
-0.1548592218446508
  0
VERTEX
  5
45A
  8
5
  6
STRICHLINIE
 10
15.861781915768001
 20
-624.59342275076096
 30
0.0
  0
VERTEX
  5
45B
  8
5
  6
STRICHLINIE
 10
13.126229803336621
 20
-621.67507482082283
 30
0.0
 42
0.1450059179430253
  0
VERTEX
  5
45C
  8
5
  6
STRICHLINIE
 10
26.755243467463512
 20
-575.88282697348541
 30
0.0
 42
0.0784911828100752
  0
SEQEND
  5
45D
  8
5
  6
STRICHLINIE
  0
CIRCLE
  5
2D9
  8
6
 10
660.0
 20
-802.80918785853191
 30
0.0
 40
2.7999999999999989
  0
LINE
  5
2DA
  8
6
  6
STRICHPUNKT
 10
654.97676792899244
 20
-802.80918785853191
 30
0.0
 11
665.02323207100744
 21
-802.80918785853191
 31
0.0
  0
LINE
  5
2DB
  8
6
  6
STRICHPUNKT
 10
660.0
 20
-807.83241992954027
 30
0.0
 11
660.0
 21
-797.78595578752447
 31
0.0
  0
LINE
  5
2DC
  8
6
  6
STRICHPUNKT
 10
378.0
 20
5.3211303313364624
 30
0.0
 11
378.0
 21
-6.0017470846596552
 31
0.0
  0
LINE
  5
2DD
  8
6
  6
STRICHPUNKT
 10
80.0
 20
5.3211303313364624
 30
0.0
 11
80.0
 21
-6.0017470846596552
 31
0.0
  0
LINE
  5
2DE
  8
6
  6
STRICHPUNKT
 10
46.0
 20
-7.2447664722658374
 30
0.0
 11
46.0
 21
-20.755233527734159
 31
0.0
  0
CIRCLE
  5
2DF
  8
6
 10
46.0
 20
-14.0
 30
0.0
 40
5.0
  0
LINE
  5
2E0
  8
6
  6
STRICHPUNKT
 10
39.24476647226583
 20
-14.0
 30
0.0
 11
52.755233527734163
 21
-14.0
 31
0.0
  0
POLYLINE
  5
2E1
  8
6
 66
     1
 10
0.0
 20
0.0
 30
0.0
 70
     1
  0
VERTEX
  5
45E
  8
6
 10
0.0
 20
-42.0
 30
0.0
  0
VERTEX
  5
45F
  8
6
 10
0.0
 20
-2.0
 30
0.0
  0
VERTEX
  5
460
  8
6
 10
9.0
 20
-2.3333333333339392
 30
0.0
  0
VERTEX
  5
461
  8
6
 10
9.0
 20
-42.0
 30
0.0
  0
SEQEND
  5
462
  8
6
  0
LINE
  5
2E2
  8
6
  6
STRICHPUNKT
 10
-5.9016008759754177
 20
-22.0
 30
0.0
 11
12.178043939153209
 21
-22.0
 31
0.0
  0
LINE
  5
2E3
  8
6
  6
STRICHPUNKT
 10
17.24476647226583
 20
-153.0
 30
0.0
 11
30.755233527734159
 21
-153.0
 31
0.0
  0
CIRCLE
  5
2E4
  8
6
 10
24.0
 20
-153.0
 30
0.0
 40
5.0
  0
LINE
  5
2E5
  8
6
  6
STRICHPUNKT
 10
24.0
 20
-146.24476647226581
 30
0.0
 11
24.0
 21
-159.75523352773411
 31
0.0
  0
POLYLINE
  5
2E6
  8
6
 66
     1
 10
0.0
 20
0.0
 30
0.0
 70
     1
  0
VERTEX
  5
463
  8
6
 10
57.0
 20
-6.896582996126198
 30
0.0
  0
VERTEX
  5
464
  8
6
 10
57.0
 20
-27.28810936204172
 30
0.0
 42
-0.2652422099785531
  0
VERTEX
  5
465
  8
6
 10
55.526187936380673
 20
-29.870888946684769
 30
0.0
  0
VERTEX
  5
466
  8
6
 10
36.473812063621153
 20
-41.129111053315683
 30
0.0
 42
0.2652422099785523
  0
VERTEX
  5
467
  8
6
 10
35.0
 20
-43.711890637958732
 30
0.0
  0
VERTEX
  5
468
  8
6
 10
35.0
 20
-183.4293207136725
 30
0.0
 42
-0.0942679950976746
  0
VERTEX
  5
469
  8
6
 10
34.790465663994837
 20
-184.53082031788099
 30
0.0
  0
VERTEX
  5
46A
  8
6
 10
20.74940805097139
 20
-220.1014996042081
 30
0.0
 42
-0.3079221074745661
  0
VERTEX
  5
46B
  8
6
 10
17.958942386976549
 20
-222.0
 30
0.0
  0
VERTEX
  5
46C
  8
6
 10
0.0
 20
-222.0
 30
0.0
  0
VERTEX
  5
46D
  8
6
 10
0.0
 20
-2.0
 30
0.0
  0
VERTEX
  5
46E
  8
6
 10
54.105198420400491
 20
-3.8984280147510608
 30
0.0
 42
-0.403977735511994
  0
SEQEND
  5
46F
  8
6
  0
POLYLINE
  5
2E7
  8
6
  6
STRICHLINIE
 66
     1
 10
0.0
 20
0.0
 30
0.0
  0
VERTEX
  5
470
  8
6
  6
STRICHLINIE
 10
57.0
 20
-22.0
 30
0.0
  0
VERTEX
  5
471
  8
6
  6
STRICHLINIE
 10
32.0
 20
-22.0
 30
0.0
  0
VERTEX
  5
472
  8
6
  6
STRICHLINIE
 10
32.0
 20
0.0
 30
0.0
  0
SEQEND
  5
473
  8
6
  6
STRICHLINIE
  0
LINE
  5
2E8
  8
6
  6
STRICHPUNKT
 10
372.9767679289925
 20
-802.80918785853191
 30
0.0
 11
383.02323207100739
 21
-802.80918785853191
 31
0.0
  0
CIRCLE
  5
2E9
  8
6
 10
378.0
 20
-802.80918785853191
 30
0.0
 40
2.7999999999999989
  0
LINE
  5
2EA
  8
6
  6
STRICHPUNKT
 10
378.0
 20
-807.83241992954027
 30
0.0
 11
378.0
 21
-797.78595578752447
 31
0.0
  0
LINE
  5
2EB
  8
6
  6
STRICHPUNKT
 10
74.976767928992544
 20
-802.80918785853191
 30
0.0
 11
85.023232071007442
 21
-802.80918785853191
 31
0.0
  0
CIRCLE
  5
2EC
  8
6
 10
80.0
 20
-802.80918785853191
 30
0.0
 40
2.7999999999999989
  0
LINE
  5
2ED
  8
6
  6
STRICHPUNKT
 10
80.0
 20
-807.83241992954027
 30
0.0
 11
80.0
 21
-797.78595578752447
 31
0.0
  0
LINE
  5
2EE
  8
6
  6
STRICHPUNKT
 10
46.0
 20
-829.95937586317984
 30
0.0
 11
46.0
 21
-775.65899985388387
 31
0.0
  0
LINE
  5
2EF
  8
6
  6
STRICHPUNKT
 10
-5.9016008759754177
 20
-802.80918785853191
 30
0.0
 11
10.42127654002069
 21
-802.80918785853191
 31
0.0
  0
LINE
  5
2F0
  8
6
  6
STRICHPUNKT
 10
-5.9016008759754177
 20
-760.30918785853191
 30
0.0
 11
10.42127654002069
 21
-760.30918785853191
 31
0.0
  0
LINE
  5
2F1
  8
6
  6
STRICHPUNKT
 10
-5.9016008759754177
 20
-845.3091878585318
 30
0.0
 11
10.42127654002069
 21
-845.3091878585318
 31
0.0
  0
POLYLINE
  5
2F2
  8
6
 66
     1
 10
0.0
 20
0.0
 30
0.0
 70
     1
  0
VERTEX
  5
474
  8
6
 10
0.0
 20
-745.3091878585318
 30
0.0
  0
VERTEX
  5
475
  8
6
 10
9.0
 20
-745.3091878585318
 30
0.0
  0
VERTEX
  5
476
  8
6
 10
9.0
 20
-780.30918785853191
 30
0.0
  0
VERTEX
  5
477
  8
6
 10
57.0
 20
-780.30918785853191
 30
0.0
  0
VERTEX
  5
478
  8
6
 10
57.0
 20
-787.30918785853191
 30
0.0
  0
VERTEX
  5
479
  8
6
 10
9.0
 20
-787.30918785853191
 30
0.0
  0
VERTEX
  5
47A
  8
6
 10
9.0
 20
-818.30918785853191
 30
0.0
  0
VERTEX
  5
47B
  8
6
 10
57.0
 20
-818.30918785853191
 30
0.0
  0
VERTEX
  5
47C
  8
6
 10
57.0
 20
-825.30918785853191
 30
0.0
  0
VERTEX
  5
47D
  8
6
 10
9.0
 20
-825.30918785853191
 30
0.0
  0
VERTEX
  5
47E
  8
6
 10
9.0
 20
-860.30918785853191
 30
0.0
  0
VERTEX
  5
47F
  8
6
 10
0.0
 20
-860.30918785853191
 30
0.0
  0
SEQEND
  5
480
  8
6
  0
POLYLINE
  5
2F3
  8
5
  6
STRICHLINIE
 66
     1
 10
0.0
 20
0.0
 30
0.0
 70
     1
  0
VERTEX
  5
481
  8
5
  6
STRICHLINIE
 10
60.0
 20
0.0
 30
0.0
  0
VERTEX
  5
482
  8
5
  6
STRICHLINIE
 10
60.0
 20
0.0
 30
0.0
  0
VERTEX
  5
483
  8
5
  6
STRICHLINIE
 10
60.0
 20
-648.0
 30
0.0
  0
VERTEX
  5
484
  8
5
  6
STRICHLINIE
 10
48.0
 20
-648.0
 30
0.0
 42
-0.4142135623730951
  0
VERTEX
  5
485
  8
5
  6
STRICHLINIE
 10
38.0
 20
-638.0
 30
0.0
  0
VERTEX
  5
486
  8
5
  6
STRICHLINIE
 10
38.0
 20
-443.0
 30
0.0
  0
VERTEX
  5
487
  8
5
  6
STRICHLINIE
 10
-2.0
 20
-436.0
 30
0.0
  0
VERTEX
  5
488
  8
5
  6
STRICHLINIE
 10
-2.0
 20
-405.0
 30
0.0
  0
VERTEX
  5
489
  8
5
  6
STRICHLINIE
 10
38.0
 20
-398.0
 30
0.0
  0
VERTEX
  5
48A
  8
5
  6
STRICHLINIE
 10
38.0
 20
-25.0
 30
0.0
  0
VERTEX
  5
48B
  8
5
  6
STRICHLINIE
 10
38.0
 20
0.0
 30
0.0
  0
SEQEND
  5
48C
  8
5
  6
STRICHLINIE
  0
POLYLINE
  5
2F4
  8
6
 66
     1
 10
0.0
 20
0.0
 30
0.0
 70
     1
  0
VERTEX
  5
48D
  8
6
 10
34.511378421786503
 20
-789.30918785853191
 30
0.0
  0
VERTEX
  5
48E
  8
6
 10
34.511378421786503
 20
-816.30918785853191
 30
0.0
  0
VERTEX
  5
48F
  8
6
 10
680.0
 20
-816.30918785853191
 30
0.0
  0
VERTEX
  5
490
  8
6
 10
680.0
 20
-789.30918785853191
 30
0.0
  0
SEQEND
  5
491
  8
6
  0
POLYLINE
  5
2F5
  8
6
 66
     1
 10
0.0
 20
0.0
 30
0.0
  0
VERTEX
  5
492
  8
6
 10
32.0
 20
0.0
 30
0.0
  0
VERTEX
  5
493
  8
6
 10
32.0
 20
0.0
 30
0.0
  0
VERTEX
  5
494
  8
6
 10
680.0
 20
0.0
 30
0.0
  0
VERTEX
  5
495
  8
6
 10
680.0
 20
-12.0
 30
0.0
 42
-0.4142135623730951
  0
VERTEX
  5
496
  8
6
 10
670.0
 20
-22.0
 30
0.0
  0
VERTEX
  5
497
  8
6
 10
475.0
 20
-22.0
 30
0.0
  0
VERTEX
  5
498
  8
6
 10
468.0
 20
-62.0
 30
0.0
  0
VERTEX
  5
499
  8
6
 10
437.0
 20
-62.0
 30
0.0
  0
VERTEX
  5
49A
  8
6
 10
430.0
 20
-22.0
 30
0.0
  0
VERTEX
  5
49B
  8
6
 10
57.0
 20
-22.0
 30
0.0
  0
SEQEND
  5
49C
  8
6
  0
DIMENSION
  5
2F6
  8
1
  2
*D2
 10
-0.000000000000028
 20
-679.34416632048851
 30
0.0
 11
340.0
 21
-660.15385254149805
 31
0.0
 70
     0
 13
680.0
 23
-12.0
 33
0.0
 14
0.0
 24
-222.0
 34
0.0
  0
POLYLINE
  5
2F7
  8
6
 66
     1
 10
0.0
 20
0.0
 30
0.0
 70
     1
  0
VERTEX
  5
49D
  8
6
 10
-88.905024785202841
 20
-42.0
 30
0.0
  0
VERTEX
  5
49E
  8
6
 10
-88.905024785202841
 20
-2.0
 30
0.0
  0
VERTEX
  5
49F
  8
6
 10
-56.905024785202841
 20
-2.0
 30
0.0
 42
-0.4142135623730951
  0
VERTEX
  5
4A0
  8
6
 10
-53.905024785202841
 20
-5.0
 30
0.0
  0
VERTEX
  5
4A1
  8
6
 10
-53.905024785202841
 20
-39.0
 30
0.0
 42
-0.4142135623730951
  0
VERTEX
  5
4A2
  8
6
 10
-56.905024785202841
 20
-42.0
 30
0.0
  0
SEQEND
  5
4A3
  8
6
  0
LINE
  5
2F8
  8
6
  6
STRICHPUNKT
 10
-76.149970121792649
 20
-22.0
 30
0.0
 11
-61.660079448611206
 21
-22.0
 31
0.0
  0
CIRCLE
  5
2F9
  8
6
 10
-68.905024785202841
 20
-22.0
 30
0.0
 40
5.5
  0
LINE
  5
2FA
  8
6
  6
STRICHPUNKT
 10
-68.905024785202841
 20
-14.755054663409281
 30
0.0
 11
-68.905024785202841
 21
-29.24494533659162
 31
0.0
  0
LINE
  5
2FB
  8
6
  6
STRICHPUNKT
 10
-111.4050247852028
 20
5.3211303313364624
 30
0.0
 11
-111.4050247852028
 21
-6.0017470846596552
 31
0.0
  0
LINE
  5
2FC
  8
6
  6
STRICHPUNKT
 10
-136.91478249402459
 20
-14.0
 30
0.0
 11
-85.895267076379241
 21
-14.0
 31
0.0
  0
POLYLINE
  5
2FD
  8
6
 66
     1
 10
0.0
 20
0.0
 30
0.0
 70
     1
  0
VERTEX
  5
4A4
  8
6
 10
-124.9050247852028
 20
-22.0
 30
0.0
  0
VERTEX
  5
4A5
  8
6
 10
-124.9050247852028
 20
0.0
 30
0.0
  0
VERTEX
  5
4A6
  8
6
 10
-97.905024785202841
 20
0.0
 30
0.0
  0
VERTEX
  5
4A7
  8
6
 10
-97.905024785202841
 20
-22.0
 30
0.0
  0
VERTEX
  5
4A8
  8
6
 10
-101.9050247852028
 20
-22.0
 30
0.0
  0
VERTEX
  5
4A9
  8
6
 10
-101.9050247852028
 20
-4.0
 30
0.0
  0
VERTEX
  5
4AA
  8
6
 10
-120.9050247852028
 20
-4.0
 30
0.0
  0
VERTEX
  5
4AB
  8
6
 10
-120.9050247852028
 20
-22.0
 30
0.0
  0
SEQEND
  5
4AC
  8
6
  0
POLYLINE
  5
2FE
  8
6
  6
STRICHPUNKT
 66
     1
 10
0.0
 20
0.0
 30
0.0
 70
     1
  0
VERTEX
  5
4AD
  8
6
  6
STRICHPUNKT
 10
-97.905024785202841
 20
-22.0
 30
0.0
  0
VERTEX
  5
4AE
  8
6
  6
STRICHPUNKT
 10
-97.905024785202841
 20
-62.0
 30
0.0
  0
VERTEX
  5
4AF
  8
6
  6
STRICHPUNKT
 10
-124.9050247852028
 20
-62.0
 30
0.0
  0
VERTEX
  5
4B0
  8
6
  6
STRICHPUNKT
 10
-124.9050247852028
 20
-22.0
 30
0.0
  0
VERTEX
  5
4B1
  8
6
  6
STRICHPUNKT
 10
-120.9050247852028
 20
-22.0
 30
0.0
  0
VERTEX
  5
4B2
  8
6
  6
STRICHPUNKT
 10
-120.9050247852028
 20
-58.0
 30
0.0
  0
VERTEX
  5
4B3
  8
6
  6
STRICHPUNKT
 10
-101.9050247852028
 20
-58.0
 30
0.0
  0
VERTEX
  5
4B4
  8
6
  6
STRICHPUNKT
 10
-101.9050247852028
 20
-22.0
 30
0.0
  0
SEQEND
  5
4B5
  8
6
  6
STRICHPUNKT
  0
CIRCLE
  5
2FF
  8
6
 10
-111.4050247852028
 20
-192.0
 30
0.0
 40
5.5
  0
LINE
  5
300
  8
6
  6
STRICHPUNKT
 10
-118.64997012179261
 20
-192.0
 30
0.0
 11
-104.1600794486112
 21
-192.0
 31
0.0
  0
LINE
  5
301
  8
6
  6
STRICHPUNKT
 10
-111.4050247852028
 20
-184.7550546634092
 30
0.0
 11
-111.4050247852028
 21
-199.2449453365916
 31
0.0
  0
LINE
  5
302
  8
6
  6
STRICHPUNKT
 10
-136.91478249402459
 20
-137.0
 30
0.0
 11
-85.895267076379241
 21
-137.0
 31
0.0
  0
POLYLINE
  5
303
  8
6
  6
STRICHPUNKT
 66
     1
 10
0.0
 20
0.0
 30
0.0
 70
     1
  0
VERTEX
  5
4B6
  8
6
  6
STRICHPUNKT
 10
-103.4050247852028
 20
-54.279731741091382
 30
0.0
  0
VERTEX
  5
4B7
  8
6
  6
STRICHPUNKT
 10
-119.4050247852028
 20
-54.279731741091382
 30
0.0
  0
VERTEX
  5
4B8
  8
6
  6
STRICHPUNKT
 10
-119.4050247852028
 20
-147.1993126770312
 30
0.0
  0
VERTEX
  5
4B9
  8
6
  6
STRICHPUNKT
 10
-103.4050247852028
 20
-147.1993126770312
 30
0.0
  0
SEQEND
  5
4BA
  8
6
  6
STRICHPUNKT
  0
POLYLINE
  5
304
  8
6
 66
     1
 10
0.0
 20
0.0
 30
0.0
 70
     1
  0
VERTEX
  5
4BB
  8
6
 10
-126.9050247852028
 20
-2.0
 30
0.0
  0
VERTEX
  5
4BC
  8
6
 10
-133.90502478520281
 20
-2.0
 30
0.0
  0
VERTEX
  5
4BD
  8
6
 10
-133.90502478520281
 20
-219.0
 30
0.0
 42
0.4142135623730951
  0
VERTEX
  5
4BE
  8
6
 10
-130.90502478520281
 20
-222.0
 30
0.0
  0
VERTEX
  5
4BF
  8
6
 10
-91.905024785202855
 20
-222.0
 30
0.0
 42
0.4142135623730951
  0
VERTEX
  5
4C0
  8
6
 10
-88.905024785202841
 20
-219.0
 30
0.0
  0
VERTEX
  5
4C1
  8
6
 10
-88.905024785202841
 20
-2.0
 30
0.0
  0
VERTEX
  5
4C2
  8
6
 10
-95.905024785202826
 20
-2.0
 30
0.0
  0
VERTEX
  5
4C3
  8
6
 10
-95.905024785202826
 20
-213.0
 30
0.0
 42
-0.4142135623730951
  0
VERTEX
  5
4C4
  8
6
 10
-97.905024785202841
 20
-215.0
 30
0.0
  0
VERTEX
  5
4C5
  8
6
 10
-124.9050247852028
 20
-215.0
 30
0.0
 42
-0.4142135623730951
  0
VERTEX
  5
4C6
  8
6
 10
-126.9050247852028
 20
-213.0
 30
0.0
  0
SEQEND
  5
4C7
  8
6
  0
LINE
  5
305
  8
6
  6
STRICHPUNKT
 10
-153.90502478520281
 20
-14.755054663409281
 30
0.0
 11
-153.90502478520281
 21
-29.24494533659162
 31
0.0
  0
CIRCLE
  5
306
  8
6
 10
-153.90502478520281
 20
-22.0
 30
0.0
 40
5.5
  0
POLYLINE
  5
307
  8
6
 66
     1
 10
0.0
 20
0.0
 30
0.0
 70
     1
  0
VERTEX
  5
4C8
  8
6
 10
-133.90502478520281
 20
-42.0
 30
0.0
  0
VERTEX
  5
4C9
  8
6
 10
-133.90502478520281
 20
-2.0
 30
0.0
  0
VERTEX
  5
4CA
  8
6
 10
-165.90502478520281
 20
-2.0
 30
0.0
 42
0.4142135623730951
  0
VERTEX
  5
4CB
  8
6
 10
-168.90502478520281
 20
-5.0
 30
0.0
  0
VERTEX
  5
4CC
  8
6
 10
-168.90502478520281
 20
-39.0
 30
0.0
 42
0.4142135623730951
  0
VERTEX
  5
4CD
  8
6
 10
-165.90502478520281
 20
-42.0
 30
0.0
  0
SEQEND
  5
4CE
  8
6
  0
LINE
  5
308
  8
6
  6
STRICHPUNKT
 10
-161.14997012179259
 20
-22.0
 30
0.0
 11
-146.66007944861121
 21
-22.0
 31
0.0
  0
VIEWPORT
  5
22
 67
     1
  8
0
 10
210.0
 20
170.2366863905325
 30
0.0
 40
420.0
 41
340.47337278106511
 68
     1
 69
     1
1001
ACAD
1000
MVIEW
1002
{
1070
    16
1010
0.0
1020
0.0
1030
0.0
1010
0.0
1020
0.0
1030
1.0
1040
0.0
1040
340.47337278106511
1040
210.0
1040
170.2366863905325
1040
50.0
1040
0.0
1040
0.0
1070
     0
1070
   100
1070
     1
1070
     1
1070
     0
1070
     0
1070
     0
1070
     0
1040
0.0
1040
0.0
1040
0.0
1040
5.0
1040
5.0
1040
10.0
1040
10.0
1070
     0
1002
{
1002
}
1002
}
  0
ENDSEC
  0
EOF
